<?xml version="1.0" standalone="no"?>
<!DOCTYPE svg PUBLIC "-//W3C//DTD SVG 1.1//EN" "http://www.w3.org/Graphics/SVG/1.1/DTD/svg11.dtd" >
<svg xmlns="http://www.w3.org/2000/svg">
<metadata></metadata>
<defs>
<font id="code_boldregular" horiz-adv-x="1204" >
<font-face units-per-em="2048" ascent="1434" descent="-614" />
<missing-glyph horiz-adv-x="720" />
<glyph unicode="&#xfb01;" horiz-adv-x="1533" d="M33 0v1432h854v-207h-647v-404h573v-209h-573v-612h-207zM717 0v195h266v1237h473v-205h-266v-1032h266v-195h-739z" />
<glyph unicode="&#xfb02;" horiz-adv-x="1923" d="M43 0v1432h854v-207h-647v-404h573v-209h-573v-612h-207zM977 0v1432h207v-1225h674v-207h-881z" />
<glyph horiz-adv-x="2048" />
<glyph horiz-adv-x="2048" />
<glyph unicode="&#xd;" horiz-adv-x="2048" />
<glyph unicode=" "  horiz-adv-x="720" />
<glyph unicode="&#x09;" horiz-adv-x="720" />
<glyph unicode="&#xa0;" horiz-adv-x="720" />
<glyph unicode="!" horiz-adv-x="419" d="M45 106q0 57 35.5 93.5t87.5 36.5q59 0 95 -36t36 -94q0 -47 -37 -82.5t-94 -35.5q-50 0 -86.5 36t-36.5 82zM66 315v1119h215v-1119h-215z" />
<glyph unicode="&#x22;" horiz-adv-x="589" d="M4 922v508h199v-508h-199zM291 922v508h198v-508h-198z" />
<glyph unicode="$" horiz-adv-x="1126" d="M4 379v14l207 2l2 -2q15 -63 75.5 -119t131.5 -75v432q-80 -8 -152.5 16.5t-124.5 71t-86 112t-43 137t10 148.5t68 144q57 74 142.5 120.5t185.5 61.5v110h205v-110q72 -12 134.5 -38t116.5 -67.5t90 -105t46 -141.5l-203 -21q-15 64 -67 109.5t-117 54.5v-418 q86 -3 160 -27t134.5 -69t95 -119t34.5 -170q0 -84 -23.5 -151.5t-62 -112.5t-95.5 -79t-114.5 -53t-128.5 -32v-125h-205v125q-158 27 -278 125.5t-138 251.5zM220 1037.5q-1 -54.5 22.5 -98t70.5 -72t107 -27.5v395q-116 -28 -166 -94h-2q-31 -49 -32 -103.5zM625 199 q127 -4 188.5 103t9 211t-197.5 95v-409z" />
<glyph unicode="&#x26;" horiz-adv-x="1228" d="M12 451q8 55 30.5 107t71 102t115.5 77q-153 90 -153 297q0 129 69.5 225t174.5 141.5t225 45.5q313 0 426 -299l-187 -57q-67 151 -239 151q-106 0 -184.5 -55t-79.5 -150q0 -87 51.5 -144.5t165.5 -57.5h665v-205h-143v-240q0 -177 -128 -287t-355 -114 q-135 -2 -242 36.5t-170 104.5t-92.5 149t-20.5 173zM217 430q-7 -95 76.5 -168.5t241.5 -73.5q129 0 204.5 57t75.5 152v232h-319q-133 4 -201.5 -55t-77.5 -144z" />
<glyph unicode="'" horiz-adv-x="288" d="M10 928v508h197v-508h-197z" />
<glyph unicode="," horiz-adv-x="438" d="M-10 -162l149 377h240l-182 -377h-207z" />
<glyph unicode="." horiz-adv-x="319" d="M-6 119q0 56 35.5 91.5t87.5 35.5q57 0 93 -35t36 -92q0 -48 -37 -86.5t-92 -38.5q-50 0 -86.5 39t-36.5 86z" />
<glyph unicode="0" horiz-adv-x="1130" d="M-6 684q0 105 20.5 204t63.5 187.5t104 155t147.5 105t188.5 38.5q101 0 187.5 -38.5t147.5 -105t104.5 -155t64 -187.5t20.5 -204t-20.5 -204t-64 -187t-104.5 -154t-147.5 -104.5t-187.5 -38.5q-102 0 -188.5 38.5t-147.5 104.5t-104 154t-63.5 187t-20.5 204zM190 684 q0 -94 20.5 -180.5t60 -156t103.5 -111t144 -41.5q79 0 143 41.5t103.5 111t60.5 156t21 180.5t-21 181t-60.5 157t-103.5 112t-143 42q-80 0 -144 -42t-103.5 -112t-60 -157t-20.5 -181z" />
<glyph unicode="1" horiz-adv-x="550" d="M-109 895l388 545h165v-1440h-204v1044l-193 -262z" />
<glyph unicode="2" horiz-adv-x="1087" d="M-2 0v160l674 573h-2q55 39 89 93t43.5 109t-5 109.5t-50 96.5t-98 68t-143.5 26q-127 0 -200 -74t-93 -200l-207 16q14 98 52 181t99 147t150.5 100.5t198.5 36.5q131 0 237 -45.5t169.5 -119t93 -168t18.5 -189.5t-66 -187t-149 -158q-98 -81 -227 -184t-236 -192h658 v-199h-1006z" />
<glyph unicode="3" horiz-adv-x="1062" d="M-20 356l192 35q15 -93 90 -155t203 -62q160 0 245.5 73.5t77.5 170.5q-3 34 -18.5 67.5t-44 66t-80 52t-117.5 19.5h-215v194h215q98 0 147.5 65.5t49.5 147.5q0 68 -40.5 117t-100.5 70.5t-131 21.5q-86 0 -156.5 -46t-89.5 -126l-187 45q25 104 92.5 179t155 110 t185.5 35q89 0 172 -25t152 -73t110.5 -127.5t42.5 -180.5q0 -211 -131 -299q187 -110 184 -334q-1 -79 -34.5 -152.5t-95.5 -132.5t-163 -94.5t-225 -35.5q-111 0 -200 30t-146 83.5t-91.5 118.5t-47.5 142z" />
<glyph unicode="4" horiz-adv-x="1083" d="M-27 324v145l760 965h160v-910h117v-200h-117v-324h-205v324h-715zM244 520h448v555z" />
<glyph unicode="5" horiz-adv-x="1093" d="M-2 326l190 77q44 -91 120 -142.5t179 -51.5q151 0 234.5 86t81.5 205q0 78 -43.5 148t-122.5 104q-249 103 -504 -47l-117 53v682h914v-201h-705v-287q257 83 486 -8q145 -60 222 -179.5t79 -264.5q1 -95 -33 -183.5t-97.5 -160t-166 -114t-228.5 -42.5q-360 0 -489 326 z" />
<glyph unicode="6" horiz-adv-x="1110" d="M-14 492q0 152 88 286l467 656h254l-351 -494q78 28 176.5 22t172.5 -47q115 -65 176 -179.5t61 -243.5q0 -94 -33.5 -181t-96.5 -157t-164.5 -112t-227.5 -42q-125 0 -226.5 42t-165 112t-97 157t-33.5 181zM193 492q0 -55 20 -105t58 -90t99.5 -64t137.5 -24 q151 0 233 83.5t82 199.5q0 117 -82.5 201.5t-232.5 84.5q-149 0 -232 -85t-83 -201z" />
<glyph unicode="7" horiz-adv-x="1038" d="M-14 1231v203h1009v-142l-706 -1292h-238l672 1231h-737z" />
<glyph unicode="8" horiz-adv-x="1091" d="M-12 416q0 99 65.5 191t182.5 143q-55 22 -94.5 59.5t-59 80.5t-27.5 80.5t-8 73.5q1 79 27.5 146t71 113.5t103.5 79t123.5 48t131.5 15.5q110 0 199.5 -34.5t145 -92t85 -128.5t29.5 -149q0 -84 -49 -169t-132 -123q118 -45 180 -137.5t62 -196.5q0 -82 -33.5 -158 t-96 -137.5t-164 -98t-226.5 -36.5q-124 0 -224 35t-163 95t-96 137t-33 163zM193 414q0 -92 83 -164t228 -72q148 0 230.5 72t82.5 164q0 93 -82 161t-231 68q-146 0 -228.5 -68.5t-82.5 -160.5zM252 1047q0 -82 66.5 -147.5t185.5 -65.5q120 0 187 65.5t67 149.5 q0 97 -78 156t-176 59t-175 -60t-77 -157z" />
<glyph unicode="9" horiz-adv-x="1122" d="M-4 950q0 76 20.5 148t64 135.5t104.5 111t148 75.5t189 28q127 0 229.5 -42.5t167 -113t98.5 -158.5t34 -184q0 -150 -88 -288l-471 -662h-256l352 500q-81 -30 -179.5 -24.5t-170.5 46.5q-117 67 -179.5 182.5t-62.5 245.5zM205 950q0 -74 33.5 -138t107.5 -107 t176 -43t176 43t108 107t34 138q0 118 -83.5 202.5t-234.5 84.5t-234 -84.5t-83 -202.5z" />
<glyph unicode=":" horiz-adv-x="305" d="M-6 111q0 53 33 85.5t82 32.5q54 0 87 -32t33 -86q0 -45 -34 -81t-86 -36q-46 0 -80.5 36.5t-34.5 80.5zM-6 670q0 53 33 85.5t82 32.5q54 0 87 -32t33 -86q0 -46 -34 -81.5t-86 -35.5q-46 0 -80.5 36t-34.5 81z" />
<glyph unicode=";" horiz-adv-x="286" d="M-115 -201h207l182 377h-239zM-8 670q0 53 33 85.5t81 32.5q54 0 87.5 -32t33.5 -86q0 -46 -34.5 -81.5t-86.5 -35.5q-46 0 -80 36t-34 81z" />
<glyph unicode="?" horiz-adv-x="1044" d="M-41 1108q71 152 193 244t288 92q121 0 221.5 -39t165.5 -105t100.5 -150.5t33.5 -176.5q-2 -67 -19.5 -122.5t-42 -92t-63.5 -69t-71.5 -52t-76.5 -43.5q-11 -5 -16 -8q-79 -42 -100 -63q-27 -26 -27 -58l2 -166h-209v168q0 37 7.5 69.5t17 56t30.5 47.5t35.5 37.5 t45.5 33t47 28t53 27.5q4 2 6.5 3.5t5.5 2.5h-2q31 17 46 26t40 28t37 37.5t22.5 48t11.5 65.5q3 103 -78.5 178.5t-222.5 75.5q-103 0 -182.5 -57.5t-130.5 -161.5zM311 102q0 59 37 97.5t92 38.5q60 0 97.5 -38t37.5 -98q0 -50 -38.5 -90.5t-96.5 -40.5q-52 0 -90.5 41 t-38.5 90z" />
<glyph unicode="A" d="M-88 0l575 1452h152l575 -1452h-221l-172 422h-514q-125 -298 -172 -422h-223zM385 616h356l-176 506z" />
<glyph unicode="B" horiz-adv-x="1167" d="M33 0v1432h596q129 0 217.5 -65t130.5 -171q29 -74 31 -146v-6q0 -68 -33 -136q-34 -70 -103 -120q115 -49 169.5 -146.5t54.5 -209.5q0 -82 -27 -158.5t-77.5 -138t-131.5 -98.5t-180 -37h-647zM238 201h442q98 0 153.5 68.5t55.5 160.5t-55.5 159.5t-153.5 67.5h-442 v-456zM238 862h387q46 0 82.5 20.5t56.5 53.5q19 32 28 72q5 20 5 41q-1 19 -5 39q-8 40 -26 73t-54.5 53.5t-82.5 20.5h-391v-373z" />
<glyph unicode="C" horiz-adv-x="1454" d="M6 713q0 148 54.5 280t150.5 234q96 99 224.5 156t271.5 57q246 0 425.5 -143t241.5 -386h-205q-56 158 -178 241t-284 83q-101 0 -192.5 -41t-160.5 -113q-147 -154 -147 -368q0 -211 147 -365q69 -72 160.5 -112.5t192.5 -40.5q165 0 292.5 90.5t182.5 251.5h202 q-62 -247 -245.5 -397t-431.5 -150q-144 0 -272 56.5t-224 156.5q-95 102 -150 233.5t-55 276.5z" />
<glyph unicode="D" horiz-adv-x="1333" d="M35 0v1432h514q137 0 253 -40t198 -109t140 -161t85.5 -195t27.5 -212t-27.5 -212t-85.5 -194.5t-140 -160t-198 -108.5t-253 -40h-514zM242 207h307q120 0 217.5 43.5t158 115.5t92.5 162t32 187q0 77 -20 150.5t-61 139t-99 114.5t-140.5 77.5t-179.5 28.5h-307v-1018z " />
<glyph unicode="E" horiz-adv-x="958" d="M25 0v1432h872v-207h-664v-404h650v-209h-650v-405h666v-207h-874z" />
<glyph unicode="F" horiz-adv-x="919" d="M25 0v1432h854v-207h-648v-404h574v-209h-574v-612h-206z" />
<glyph unicode="G" horiz-adv-x="1484" d="M6 715q0 156 55 292t149 231t224.5 149.5t276.5 54.5q85 0 169 -17.5t167.5 -57t151.5 -98.5t120 -149t74 -200h-222q-20 83 -69.5 146t-114.5 98.5t-134.5 53t-141.5 17.5q-212 0 -355 -148t-143 -372q0 -226 143 -376.5t355 -150.5q93 0 176 28t158 95.5t116 167.5 h-530v207h772q-15 -186 -39 -248v2q-47 -133 -153.5 -237t-237.5 -158.5t-262 -54.5q-149 0 -279.5 54.5t-224 149.5t-147.5 230t-54 291z" />
<glyph unicode="H" horiz-adv-x="1153" d="M31 0v1432h207v-605h606v605h209v-1432h-209v623h-606v-623h-207z" />
<glyph unicode="I" horiz-adv-x="796" d="M-12 0v207h266v1020h-266v205h739v-205h-266v-1020h266v-207h-739z" />
<glyph unicode="J" horiz-adv-x="827" d="M-49 0v207q125 0 229.5 25t184.5 74.5t125 130t45 184.5v606h-388v205h594v-811q0 -125 -40 -228t-111.5 -175t-170.5 -121.5t-216.5 -73t-251.5 -23.5z" />
<glyph unicode="K" horiz-adv-x="1075" d="M35 0v1432h205v-1432h-205zM279 664v104l499 664h260l-546 -711l604 -721h-271z" />
<glyph unicode="L" horiz-adv-x="962" d="M27 0v1432h206v-1225h674v-207h-880z" />
<glyph unicode="M" horiz-adv-x="1447" d="M39 0v1434h168l473 -697l473 697h164v-1434h-205v1010l-375 -557h-116l-375 557v-1010h-207z" />
<glyph unicode="N" d="M33 0v1436l160 -2l698 -1010v1010h205v-1434h-164l-692 1001v-1001h-207z" />
<glyph unicode="O" horiz-adv-x="1552" d="M-4 717q0 148 56.5 281.5t156.5 236.5q100 102 234 159.5t282 57.5q149 0 282.5 -57.5t235.5 -159.5q100 -103 156.5 -236.5t56.5 -281.5t-56.5 -281.5t-156.5 -236.5q-102 -103 -235 -160t-283 -57q-149 0 -282.5 57t-233.5 160t-156.5 236.5t-56.5 281.5zM205 717 q0 -107 40.5 -203t112.5 -168q72 -73 167.5 -114.5t199.5 -41.5t201 41.5t170 114.5q71 73 111 168t40 203q0 216 -151 370q-73 73 -170 114.5t-201 41.5t-199.5 -41.5t-167.5 -114.5q-72 -72 -112.5 -167.5t-40.5 -202.5z" />
<glyph unicode="P" horiz-adv-x="1079" d="M29 0v1434h524q112 0 202.5 -41t146.5 -109.5t86 -153t30 -176.5t-30 -176t-86 -152t-146.5 -108.5t-202.5 -40.5h-315v-477h-209zM238 682h315q123 0 191.5 80t68.5 190q0 111 -68.5 192t-191.5 81h-315v-543z" />
<glyph unicode="Q" horiz-adv-x="1568" d="M10 717q0 148 56.5 281.5t156.5 236.5q100 102 234 159.5t282 57.5q149 0 282.5 -57.5t235.5 -159.5q100 -103 156.5 -236.5t56.5 -281.5q0 -247 -155 -449l237 -223v-45h-225l-135 121q-209 -137 -447 -137q-36 0 -73 4q-279 23 -449 211q-213 233 -213 518zM217 717 q0 -106 41.5 -203t112.5 -170q134 -134 315 -156q33 -4 65 -4q145 0 279 80l-397 354h287l243 -221q47 64 73 148.5t26 171.5q0 106 -41.5 201.5t-112.5 168.5q-72 73 -168 114.5t-201 41.5q-104 0 -199.5 -41.5t-168.5 -114.5q-71 -73 -112.5 -168.5t-41.5 -201.5z" />
<glyph unicode="R" horiz-adv-x="1079" d="M35 0v1434h522q90 0 167.5 -25.5t131.5 -70t92.5 -103t57 -124t18.5 -134.5q0 -161 -97 -284t-274 -154l453 -539h-268l-523 629v98h242q123 0 191.5 74t68.5 176q0 100 -68.5 174t-191.5 74h-317v-1225h-205z" />
<glyph unicode="S" horiz-adv-x="1134" d="M8 414l209 4l2 -31v8q10 -93 104.5 -147.5t204.5 -54.5q124 0 223 64.5t99 168.5q0 22 -6 49q-6 26 -21.5 47t-41 35t-50.5 24t-64 17t-67 10.5t-72 7.5q-56 6 -98 12t-95.5 19t-93.5 30.5t-81 45.5t-68.5 63.5t-47 87t-24.5 113.5v-2q-2 19 -2 38q0 130 80 234 q70 91 187.5 141t246.5 50q85 0 164.5 -22.5t148 -67t115.5 -118.5t60 -169l-205 -8q-14 61 -61 104q-46 43 -106 61q-56 17 -119 17h-7q-78 -2 -149 -29t-111 -79q-36 -45 -36 -111q0 -11 1 -22q2 -36 16 -63.5t40 -46t52 -31t68 -20.5t72 -12t78 -8q57 -7 102 -15.5 t101 -23.5t99 -37.5t84 -53t69 -75.5t41 -100q10 -52 10 -94q0 -100 -47 -184t-123 -138t-170.5 -84t-192.5 -30q-67 0 -135.5 15.5t-133.5 47.5t-117 77t-87 109t-43 138z" />
<glyph unicode="T" horiz-adv-x="1093" d="M-41 1225v209h1073v-209h-432v-1231h-207v1231h-434z" />
<glyph unicode="U" horiz-adv-x="1206" d="M37 430v1002h209v-1004q0 -75 49.5 -130t120.5 -80t151 -25q79 0 150 25.5t120.5 81t49.5 130.5v1002h209v-1004q0 -105 -47.5 -191t-125 -139.5t-170 -82.5t-186.5 -29q-97 0 -189.5 29t-169.5 82.5t-124 140t-47 192.5z" />
<glyph unicode="V" horiz-adv-x="1232" d="M-84 1432h225l426 -1072l430 1072h222l-576 -1436h-151z" />
<glyph unicode="W" horiz-adv-x="1742" d="M-61 1432h215l342 -1035l235 670h166l233 -668q46 140 166 496.5t179 536.5h217l-478 -1444h-153l-248 694q-236 -672 -244 -694h-153z" />
<glyph unicode="X" horiz-adv-x="1230" d="M-86 0l518 713q-35 47 -518 719h254l389 -537l391 537h252l-518 -719q322 -442 518 -713h-252l-391 537l-389 -537h-254z" />
<glyph unicode="Y" horiz-adv-x="1161" d="M-102 1432h243l391 -629l392 629h245l-532 -848v-584h-209v584z" />
<glyph unicode="Z" horiz-adv-x="1091" d="M-59 115l827 1128h-766v189h971l69 -132l-811 -1116h799v-184h-1005z" />
<glyph unicode="`" horiz-adv-x="503" d="M-12 1468h278l148 -219h-195z" />
<glyph unicode="a" d="M-88 0l575 1452h152l575 -1452h-221l-172 422h-514q-125 -298 -172 -422h-223zM385 616h356l-176 506z" />
<glyph unicode="b" horiz-adv-x="1150" d="M33 0v1432h596q129 0 217.5 -65t130.5 -171q29 -74 31 -146v-6q0 -68 -33 -136q-34 -70 -103 -120q115 -49 169.5 -146.5t54.5 -209.5q0 -82 -27 -158.5t-77.5 -138t-131.5 -98.5t-180 -37h-647zM238 201h442q98 0 153.5 68.5t55.5 160.5t-55.5 159.5t-153.5 67.5h-442 v-456zM238 862h387q46 0 82.5 20.5t56.5 53.5q19 32 28 72q5 20 5 41q-1 19 -5 39q-8 40 -26 73t-54.5 53.5t-82.5 20.5h-391v-373z" />
<glyph unicode="c" horiz-adv-x="1454" d="M6 713q0 148 54.5 280t150.5 234q96 99 224.5 156t271.5 57q246 0 425.5 -143t241.5 -386h-205q-56 158 -178 241t-284 83q-101 0 -192.5 -41t-160.5 -113q-147 -154 -147 -368q0 -211 147 -365q69 -72 160.5 -112.5t192.5 -40.5q165 0 292.5 90.5t182.5 251.5h202 q-62 -247 -245.5 -397t-431.5 -150q-144 0 -272 56.5t-224 156.5q-95 102 -150 233.5t-55 276.5z" />
<glyph unicode="d" horiz-adv-x="1333" d="M35 0v1432h514q137 0 253 -40t198 -109t140 -161t85.5 -195t27.5 -212t-27.5 -212t-85.5 -194.5t-140 -160t-198 -108.5t-253 -40h-514zM242 207h307q120 0 217.5 43.5t158 115.5t92.5 162t32 187q0 77 -20 150.5t-61 139t-99 114.5t-140.5 77.5t-179.5 28.5h-307v-1018z " />
<glyph unicode="e" horiz-adv-x="958" d="M25 0v1432h872v-207h-664v-404h650v-209h-650v-405h666v-207h-874z" />
<glyph unicode="f" horiz-adv-x="919" d="M25 0v1432h854v-207h-648v-404h574v-209h-574v-612h-206z" />
<glyph unicode="g" horiz-adv-x="1484" d="M6 715q0 156 55 292t149 231t224.5 149.5t276.5 54.5q85 0 169 -17.5t167.5 -57t151.5 -98.5t120 -149t74 -200h-222q-20 83 -69.5 146t-114.5 98.5t-134.5 53t-141.5 17.5q-212 0 -355 -148t-143 -372q0 -226 143 -376.5t355 -150.5q93 0 176 28t158 95.5t116 167.5 h-530v207h772q-15 -186 -39 -248v2q-47 -133 -153.5 -237t-237.5 -158.5t-262 -54.5q-149 0 -279.5 54.5t-224 149.5t-147.5 230t-54 291z" />
<glyph unicode="h" horiz-adv-x="1153" d="M31 0v1432h207v-605h606v605h209v-1432h-209v623h-606v-623h-207z" />
<glyph unicode="i" horiz-adv-x="765" d="M-33 0v207h266v1020h-266v205h740v-205h-267v-1020h267v-207h-740z" />
<glyph unicode="j" horiz-adv-x="843" d="M-20 0v195q166 0 293 46t202.5 144t75.5 236v606h-387v205h594v-811q0 -156 -59 -276t-165.5 -194.5t-246 -112.5t-307.5 -38z" />
<glyph unicode="k" horiz-adv-x="1075" d="M35 0v1432h205v-1432h-205zM279 664v104l499 664h260l-546 -711l604 -721h-271z" />
<glyph unicode="l" horiz-adv-x="978" d="M43 0v1432h207v-1225h674v-207h-881z" />
<glyph unicode="m" horiz-adv-x="1447" d="M39 0v1434h168l473 -697l473 697h164v-1434h-205v1010l-375 -557h-116l-375 557v-1010h-207z" />
<glyph unicode="n" d="M33 0v1436l160 -2l698 -1010v1010h205v-1434h-164l-692 1001v-1001h-207z" />
<glyph unicode="o" horiz-adv-x="1552" d="M-4 717q0 148 56.5 281.5t156.5 236.5q100 102 234 159.5t282 57.5q149 0 282.5 -57.5t235.5 -159.5q100 -103 156.5 -236.5t56.5 -281.5t-56.5 -281.5t-156.5 -236.5q-102 -103 -235 -160t-283 -57q-149 0 -282.5 57t-233.5 160t-156.5 236.5t-56.5 281.5zM205 717 q0 -107 40.5 -203t112.5 -168q72 -73 167.5 -114.5t199.5 -41.5t201 41.5t170 114.5q71 73 111 168t40 203q0 216 -151 370q-73 73 -170 114.5t-201 41.5t-199.5 -41.5t-167.5 -114.5q-72 -72 -112.5 -167.5t-40.5 -202.5z" />
<glyph unicode="p" horiz-adv-x="1091" d="M29 0v1434h524q112 0 202.5 -41t146.5 -109.5t86 -153t30 -176.5t-30 -176t-86 -152t-146.5 -108.5t-202.5 -40.5h-315v-477h-209zM238 682h315q123 0 191.5 80t68.5 190q0 111 -68.5 192t-191.5 81h-315v-543z" />
<glyph unicode="q" horiz-adv-x="1585" d="M10 717q0 148 56.5 281.5t156.5 236.5q100 102 234 159.5t282 57.5q149 0 282.5 -57.5t235.5 -159.5q100 -103 156.5 -236.5t56.5 -281.5q0 -247 -155 -449l237 -223v-45h-225l-135 121q-209 -137 -447 -137q-36 0 -73 4q-279 23 -449 211q-213 233 -213 518zM217 717 q0 -106 41.5 -203t112.5 -170q134 -134 315 -156q33 -4 65 -4q145 0 279 80l-397 354h287l243 -221q47 64 73 148.5t26 171.5q0 106 -41.5 201.5t-112.5 168.5q-72 73 -168 114.5t-201 41.5q-104 0 -199.5 -41.5t-168.5 -114.5q-71 -73 -112.5 -168.5t-41.5 -201.5z" />
<glyph unicode="r" horiz-adv-x="1087" d="M35 0v1434h522q90 0 167.5 -25.5t131.5 -70t92.5 -103t57 -124t18.5 -134.5q0 -161 -97 -284t-274 -154l453 -539h-268l-523 629v98h242q123 0 191.5 74t68.5 176q0 100 -68.5 174t-191.5 74h-317v-1225h-205z" />
<glyph unicode="s" horiz-adv-x="1134" d="M8 414l209 4l2 -31v8q10 -93 104.5 -147.5t204.5 -54.5q124 0 223 64.5t99 168.5q0 22 -6 49q-6 26 -21.5 47t-41 35t-50.5 24t-64 17t-67 10.5t-72 7.5q-56 6 -98 12t-95.5 19t-93.5 30.5t-81 45.5t-68.5 63.5t-47 87t-24.5 113.5v-2q-2 19 -2 38q0 130 80 234 q70 91 187.5 141t246.5 50q85 0 164.5 -22.5t148 -67t115.5 -118.5t60 -169l-205 -8q-14 61 -61 104q-46 43 -106 61q-56 17 -119 17h-7q-78 -2 -149 -29t-111 -79q-36 -45 -36 -111q0 -11 1 -22q2 -36 16 -63.5t40 -46t52 -31t68 -20.5t72 -12t78 -8q57 -7 102 -15.5 t101 -23.5t99 -37.5t84 -53t69 -75.5t41 -100q10 -52 10 -94q0 -100 -47 -184t-123 -138t-170.5 -84t-192.5 -30q-67 0 -135.5 15.5t-133.5 47.5t-117 77t-87 109t-43 138z" />
<glyph unicode="t" horiz-adv-x="1093" d="M-41 1241v193h1073v-193h-432v-1247h-207v1247h-434z" />
<glyph unicode="u" horiz-adv-x="1206" d="M37 430v1002h209v-1004q0 -75 49.5 -130t120.5 -80t151 -25q79 0 150 25.5t120.5 81t49.5 130.5v1002h209v-1004q0 -105 -47.5 -191t-125 -139.5t-170 -82.5t-186.5 -29q-97 0 -189.5 29t-169.5 82.5t-124 140t-47 192.5z" />
<glyph unicode="v" horiz-adv-x="1232" d="M-84 1432h225l426 -1072l430 1072h222l-576 -1436h-151z" />
<glyph unicode="w" horiz-adv-x="1742" d="M-61 1432h215l342 -1035l235 670h166l233 -668q46 140 166 496.5t179 536.5h217l-482 -1440h-145l-252 690q-34 -97 -120.5 -334t-127.5 -356h-145z" />
<glyph unicode="x" horiz-adv-x="1230" d="M-86 0l518 713q-35 47 -518 719h254l389 -537l391 537h252l-518 -719q322 -442 518 -713h-252l-391 537l-389 -537h-254z" />
<glyph unicode="y" horiz-adv-x="1161" d="M-102 1432h243l391 -629l392 629h245l-532 -848v-584h-209v584z" />
<glyph unicode="z" horiz-adv-x="1091" d="M-59 115l827 1128h-766v189h971l69 -132l-811 -1116h799v-184h-1005z" />
<glyph unicode="&#xa1;" horiz-adv-x="413" d="M45 1315q0 48 37 83.5t94 35.5q50 0 86.5 -36t36.5 -83q0 -57 -35.5 -93t-87.5 -36q-59 0 -95 35.5t-36 93.5zM63 -12h216v1118h-216v-1118z" />
<glyph unicode="&#xa5;" horiz-adv-x="1161" d="M-102 1432h243l391 -629l392 629h245l-424 -674h109v-142h-197l-28 -51h225v-149h-217v-416h-209v416h-227v149h233l-26 51h-207v142h118z" />
<glyph unicode="&#xa8;" horiz-adv-x="808" d="M70 1389q0 53 33 86.5t81 33.5q54 0 87.5 -33t33.5 -87q0 -45 -34.5 -80t-86.5 -35q-46 0 -80 35.5t-34 79.5zM451 1389q0 53 33 86.5t83 33.5q54 0 86.5 -33t32.5 -87q0 -43 -36 -79t-83 -36q-48 0 -82 35.5t-34 79.5z" />
<glyph unicode="&#xb4;" horiz-adv-x="503" d="M33 1249l147 219h279l-232 -219h-194z" />
<glyph unicode="&#xb7;" horiz-adv-x="337" d="M35 647q0 53 33.5 86t81.5 33q54 0 87 -32.5t33 -86.5q0 -46 -34 -81.5t-86 -35.5q-46 0 -80.5 36t-34.5 81z" />
<glyph unicode="&#xbf;" horiz-adv-x="1052" d="M6 446q-2 -92 33.5 -176.5t100 -150.5t165 -105t221.5 -39q166 0 288.5 92.5t193.5 243.5l-168 97q-51 -104 -131 -162t-183 -58q-141 0 -222.5 75.5t-78.5 178.5q1 36 11.5 65.5t23 48t37.5 37.5t40 28t46 26h-2q112 57 151 89q97 80 97 216v168h-209l2 -166 q0 -19 -8 -34.5t-27.5 -30.5t-33.5 -23.5t-45 -24.5q-9 -5 -13 -7q-111 -60 -154 -95q-130 -106 -135 -293zM391 1317q0 50 38.5 90.5t96.5 40.5q52 0 90.5 -41t38.5 -90q0 -59 -37 -97t-92 -38q-60 0 -97.5 37.5t-37.5 97.5z" />
<glyph unicode="&#xc0;" d="M-88 0l575 1452h152l575 -1452h-221l-172 422h-514q-125 -298 -172 -422h-223zM231 1726h279l147 -219h-194zM385 616h356l-176 506z" />
<glyph unicode="&#xc1;" d="M-88 0l575 1452h152l575 -1452h-221l-172 422h-514q-125 -298 -172 -422h-223zM385 616h356l-176 506zM461 1505l147 219h279l-232 -219h-194z" />
<glyph unicode="&#xc2;" d="M-88 0l575 1452h152l575 -1452h-221l-172 422h-514q-125 -298 -172 -422h-223zM238 1493l231 205h176l225 -205h-221l-98 80l-88 -80h-225zM385 616h356l-176 506z" />
<glyph unicode="&#xc3;" d="M-88 0l575 1452h152l575 -1452h-221l-172 422h-514q-125 -298 -172 -422h-223zM295 1552q62 142 149 154q33 2 68.5 -12t60 -29.5t48 -24t41.5 6.5t30 59l131 -66q-52 -124 -133 -147q-27 -9 -60.5 1.5t-61.5 26.5t-56.5 27.5t-53.5 0.5t-44 -52zM385 616h356l-176 506z " />
<glyph unicode="&#xc4;" d="M-88 0l575 1452h152l575 -1452h-221l-172 422h-514q-125 -298 -172 -422h-223zM268 1583q0 43 32.5 70.5t80.5 27.5q53 0 85 -27t32 -71q0 -37 -33 -65.5t-84 -28.5q-46 0 -79.5 29t-33.5 65zM385 616h356l-176 506zM639 1583q0 44 32.5 71t82.5 27q52 0 83 -27t31 -71 q0 -36 -34.5 -65t-79.5 -29q-48 0 -81.5 29t-33.5 65z" />
<glyph unicode="&#xc5;" horiz-adv-x="1216" d="M-76 0l559 1413q-39 24 -62.5 64.5t-23.5 87.5q0 71 50 122.5t120 51.5q71 0 122.5 -51.5t51.5 -122.5q0 -45 -20.5 -83.5t-56.5 -62.5l563 -1419h-221l-172 422h-515q-125 -298 -172 -422h-223zM397 616h357l-176 506zM504 1565q0 -25 19 -44.5t44 -19.5q30 0 49 19 t19 45q0 27 -19 47t-49 20q-25 0 -44 -20.5t-19 -46.5z" />
<glyph unicode="&#xc6;" horiz-adv-x="1720" d="M-70 0l803 1434h895v-207h-663v-510h649v-207h-649v-303h667v-207h-874v510h-303q-215 -374 -291 -510h-234zM569 717h189l20 454z" />
<glyph unicode="&#xc7;" horiz-adv-x="1431" d="M6 713q0 148 54.5 280t150.5 234q96 99 224.5 156t271.5 57q246 0 425.5 -143t241.5 -386h-205q-56 158 -178 241t-284 83q-101 0 -192.5 -41t-160.5 -113q-147 -154 -147 -368q0 -211 147 -365q69 -72 160.5 -112.5t192.5 -40.5q165 0 292.5 90.5t182.5 251.5h202 q-59 -233 -228.5 -381.5t-399.5 -163.5l-21 -55q76 -4 126.5 -45t62.5 -96t-18.5 -117t-102.5 -105q-46 -28 -108.5 -33.5t-119.5 11t-102 59t-57 102.5l119 37q64 -82 140 -75q53 6 76 46q24 43 -14 77q-51 48 -190 42l67 156q-237 30 -403 207q-95 102 -150 233.5 t-55 276.5z" />
<glyph unicode="&#xc8;" horiz-adv-x="958" d="M25 0h874v207h-666v405h650v209h-650v404h664v207h-872v-1432zM197 1718h278l148 -219h-195z" />
<glyph unicode="&#xc9;" horiz-adv-x="958" d="M25 0v1432h872v-207h-664v-404h650v-209h-650v-405h666v-207h-874zM350 1495l148 219h278l-231 -219h-195z" />
<glyph unicode="&#xca;" horiz-adv-x="958" d="M25 0v1432h872v-207h-664v-404h650v-209h-650v-405h666v-207h-874zM164 1501l231 205h176l226 -205h-222l-98 80l-88 -80h-225z" />
<glyph unicode="&#xcb;" horiz-adv-x="958" d="M25 0h874v207h-666v405h650v209h-650v404h664v207h-872v-1432zM188 1591q0 47 33 78t80 31q53 0 86 -30.5t33 -78.5q0 -39 -33.5 -69.5t-85.5 -30.5q-45 0 -79 31t-34 69zM563 1591q0 47 32.5 78t80.5 31q53 0 85 -30.5t32 -78.5q0 -38 -35.5 -69t-81.5 -31t-79.5 31 t-33.5 69z" />
<glyph unicode="&#xcc;" horiz-adv-x="776" d="M-23 0h740v207h-266v1020h266v205h-740v-205h267v-1020h-267v-207zM31 1710h278l148 -219h-195z" />
<glyph unicode="&#xcd;" horiz-adv-x="765" d="M-33 0v207h266v1020h-266v205h740v-205h-267v-1020h267v-207h-740zM229 1497l148 219h278l-231 -219h-195z" />
<glyph unicode="&#xce;" horiz-adv-x="765" d="M-33 0v207h266v1020h-266v205h740v-205h-267v-1020h267v-207h-740zM23 1493l231 205h176l225 -205h-221l-98 80l-88 -80h-225z" />
<glyph unicode="&#xcf;" horiz-adv-x="765" d="M-33 0h740v207h-267v1020h267v205h-740v-205h266v-1020h-266v-207zM45 1589q0 47 32.5 77t80.5 30q52 0 84 -29.5t32 -77.5q0 -39 -33 -69.5t-83 -30.5q-46 0 -79.5 31t-33.5 69zM416 1589q0 47 32 77t82 30q52 0 83.5 -29.5t31.5 -77.5q0 -37 -35 -68.5t-80 -31.5 q-48 0 -81 31t-33 69z" />
<glyph unicode="&#xd1;" d="M33 0v1436l160 -2l698 -1010v1010h205v-1434h-164l-692 1001v-1001h-207zM322 1538q33 82 64 122.5t73 47.5q33 4 70.5 -9.5t63.5 -29t50.5 -24.5t42 5.5t27.5 59.5l135 -59q-52 -138 -125 -166q-27 -9 -62 2t-64 27.5t-58 27.5t-53.5 -0.5t-41.5 -54.5z" />
<glyph unicode="&#xd2;" horiz-adv-x="1552" d="M-4 717q0 -148 56.5 -281.5t156.5 -236.5t233.5 -160t282.5 -57q150 0 283 57t235 160q100 103 156.5 236.5t56.5 281.5t-56.5 281.5t-156.5 236.5q-102 102 -235.5 159.5t-282.5 57.5q-148 0 -282 -57.5t-234 -159.5q-100 -103 -156.5 -236.5t-56.5 -281.5zM205 717 q0 107 40.5 202.5t112.5 167.5q72 73 167.5 114.5t199.5 41.5t201 -41.5t170 -114.5q151 -154 151 -370q0 -108 -40 -203t-111 -168q-73 -73 -170 -114.5t-201 -41.5t-199.5 41.5t-167.5 114.5q-72 72 -112.5 168t-40.5 203zM426 1724h279l147 -219h-195z" />
<glyph unicode="&#xd3;" horiz-adv-x="1552" d="M-4 717q0 148 56.5 281.5t156.5 236.5q100 102 234 159.5t282 57.5q149 0 282.5 -57.5t235.5 -159.5q100 -103 156.5 -236.5t56.5 -281.5t-56.5 -281.5t-156.5 -236.5q-102 -103 -235 -160t-283 -57q-149 0 -282.5 57t-233.5 160t-156.5 236.5t-56.5 281.5zM205 717 q0 -107 40.5 -203t112.5 -168q72 -73 167.5 -114.5t199.5 -41.5t201 41.5t170 114.5q71 73 111 168t40 203q0 216 -151 370q-73 73 -170 114.5t-201 41.5t-199.5 -41.5t-167.5 -114.5q-72 -72 -112.5 -167.5t-40.5 -202.5zM606 1503l148 219h278l-231 -219h-195z" />
<glyph unicode="&#xd4;" horiz-adv-x="1552" d="M-4 717q0 148 56.5 281.5t156.5 236.5q100 102 234 159.5t282 57.5q149 0 282.5 -57.5t235.5 -159.5q100 -103 156.5 -236.5t56.5 -281.5t-56.5 -281.5t-156.5 -236.5q-102 -103 -235 -160t-283 -57q-149 0 -282.5 57t-233.5 160t-156.5 236.5t-56.5 281.5zM205 717 q0 -107 40.5 -203t112.5 -168q72 -73 167.5 -114.5t199.5 -41.5t201 41.5t170 114.5q71 73 111 168t40 203q0 216 -151 370q-73 73 -170 114.5t-201 41.5t-199.5 -41.5t-167.5 -114.5q-72 -72 -112.5 -167.5t-40.5 -202.5zM418 1499l231 205h176l226 -205h-222l-98 80 l-88 -80h-225z" />
<glyph unicode="&#xd5;" horiz-adv-x="1552" d="M-4 717q0 148 56.5 281.5t156.5 236.5q100 102 234 159.5t282 57.5q149 0 282.5 -57.5t235.5 -159.5q100 -103 156.5 -236.5t56.5 -281.5t-56.5 -281.5t-156.5 -236.5q-102 -103 -235 -160t-283 -57q-149 0 -282.5 57t-233.5 160t-156.5 236.5t-56.5 281.5zM205 717 q0 -107 40.5 -203t112.5 -168q72 -73 167.5 -114.5t199.5 -41.5t201 41.5t170 114.5q71 73 111 168t40 203q0 216 -151 370q-73 73 -170 114.5t-201 41.5t-199.5 -41.5t-167.5 -114.5q-72 -72 -112.5 -167.5t-40.5 -202.5zM459 1550q32 73 65.5 110.5t75.5 43.5 q33 4 70 -7.5t63.5 -25.5t51 -22t42.5 5t29 52l135 -49q-29 -65 -59 -103t-70 -51q-31 -11 -61.5 0t-63 25t-60 25.5t-52.5 0.5t-41 -49z" />
<glyph unicode="&#xd6;" horiz-adv-x="1552" d="M-4 717q0 -148 56.5 -281.5t156.5 -236.5t233.5 -160t282.5 -57q150 0 283 57t235 160q100 103 156.5 236.5t56.5 281.5t-56.5 281.5t-156.5 236.5q-102 102 -235.5 159.5t-282.5 57.5q-148 0 -282 -57.5t-234 -159.5q-100 -103 -156.5 -236.5t-56.5 -281.5zM205 717 q0 107 40.5 202.5t112.5 167.5q72 73 167.5 114.5t199.5 41.5t201 -41.5t170 -114.5q151 -154 151 -370q0 -108 -40 -203t-111 -168q-73 -73 -170 -114.5t-201 -41.5t-199.5 41.5t-167.5 114.5q-72 72 -112.5 168t-40.5 203zM432 1591q0 45 32.5 74t80.5 29q53 0 86 -28.5 t33 -74.5q0 -38 -34 -68t-85 -30q-46 0 -79.5 30t-33.5 68zM807 1591q0 45 33.5 74t81.5 29q54 0 86 -28.5t32 -74.5q0 -37 -35.5 -67.5t-82.5 -30.5q-46 0 -80.5 30t-34.5 68z" />
<glyph unicode="&#xd8;" horiz-adv-x="1556" d="M8 717q0 148 56.5 281.5t156.5 236.5q100 102 234 159.5t282 57.5q174 0 310 -68l67 105l229 2l-135 -217q260 -226 260 -557q0 -148 -56.5 -281.5t-156.5 -236.5t-234 -160t-284 -57q-73 0 -159.5 19t-151.5 48l-86 -137h-227l155 250l-47 39v-2q-100 103 -156.5 236.5 t-56.5 281.5zM217 717q0 -106 41.5 -202t112.5 -169v-2q0 -1 5 -4t5 -4l553 872q-90 35 -197 35q-104 0 -199 -41.5t-167 -114.5q-71 -73 -112.5 -168.5t-41.5 -201.5zM537 231q84 -41 200 -41q105 0 201.5 41.5t169.5 114.5q71 73 111.5 168.5t40.5 202.5q0 110 -44 209.5 t-120 175.5q-290 -453 -559 -871z" />
<glyph unicode="&#xd9;" horiz-adv-x="1206" d="M37 430q0 -106 47 -192.5t124 -140t169.5 -82.5t189.5 -29q94 0 186.5 29t170 82.5t125 139.5t47.5 191v1004h-209v-1002q0 -75 -49.5 -130.5t-120.5 -81t-150 -25.5q-80 0 -151 25t-120.5 80t-49.5 130v1004h-209v-1002zM303 1708h279l147 -219h-194z" />
<glyph unicode="&#xda;" horiz-adv-x="1206" d="M37 430v1002h209v-1004q0 -75 49.5 -130t120.5 -80t151 -25q79 0 150 25.5t120.5 81t49.5 130.5v1002h209v-1004q0 -105 -47.5 -191t-125 -139.5t-170 -82.5t-186.5 -29q-97 0 -189.5 29t-169.5 82.5t-124 140t-47 192.5zM428 1493l147 219h279l-231 -219h-195z" />
<glyph unicode="&#xdb;" horiz-adv-x="1206" d="M37 430v1002h209v-1004q0 -75 49.5 -130t120.5 -80t151 -25q79 0 150 25.5t120.5 81t49.5 130.5v1002h209v-1004q0 -105 -47.5 -191t-125 -139.5t-170 -82.5t-186.5 -29q-97 0 -189.5 29t-169.5 82.5t-124 140t-47 192.5zM244 1493l231 205h176l226 -205h-222l-98 80 l-88 -80h-225z" />
<glyph unicode="&#xdc;" horiz-adv-x="1206" d="M37 430q0 -106 47 -192.5t124 -140t169.5 -82.5t189.5 -29q94 0 186.5 29t170 82.5t125 139.5t47.5 191v1004h-209v-1002q0 -75 -49.5 -130.5t-120.5 -81t-150 -25.5q-80 0 -151 25t-120.5 80t-49.5 130v1004h-209v-1002zM268 1591q0 48 33 78.5t80 30.5q54 0 87.5 -30 t33.5 -79q0 -40 -34.5 -71t-86.5 -31q-45 0 -79 31.5t-34 70.5zM647 1591q0 49 32.5 79t82.5 30q54 0 86.5 -30t32.5 -79q0 -39 -36 -70.5t-83 -31.5q-48 0 -81.5 31t-33.5 71z" />
<glyph unicode="&#xdd;" horiz-adv-x="1161" d="M-102 1432h243l391 -629l392 629h245l-532 -848v-584h-209v584zM408 1495l147 219h279l-232 -219h-194z" />
<glyph unicode="&#xe0;" d="M-88 0l575 1452h152l575 -1452h-221l-172 422h-514q-125 -298 -172 -422h-223zM231 1726h279l147 -219h-194zM385 616h356l-176 506z" />
<glyph unicode="&#xe1;" d="M-88 0l575 1452h152l575 -1452h-221l-172 422h-514q-125 -298 -172 -422h-223zM385 616h356l-176 506zM461 1505l147 219h279l-232 -219h-194z" />
<glyph unicode="&#xe2;" d="M-88 0l575 1452h152l575 -1452h-221l-172 422h-514q-125 -298 -172 -422h-223zM238 1493l231 205h176l225 -205h-221l-98 80l-88 -80h-225zM385 616h356l-176 506z" />
<glyph unicode="&#xe3;" d="M-88 0l575 1452h152l575 -1452h-221l-172 422h-514q-125 -298 -172 -422h-223zM295 1552q62 142 149 154q33 2 68.5 -12t60 -29.5t48 -24t41.5 6.5t30 59l131 -66q-52 -124 -133 -147q-27 -9 -60.5 1.5t-61.5 26.5t-56.5 27.5t-53.5 0.5t-44 -52zM385 616h356l-176 506z " />
<glyph unicode="&#xe4;" d="M-88 0l575 1452h152l575 -1452h-221l-172 422h-514q-125 -298 -172 -422h-223zM268 1583q0 43 32.5 70.5t80.5 27.5q53 0 85 -27t32 -71q0 -37 -33 -65.5t-84 -28.5q-46 0 -79.5 29t-33.5 65zM385 616h356l-176 506zM639 1583q0 44 32.5 71t82.5 27q52 0 83 -27t31 -71 q0 -36 -34.5 -65t-79.5 -29q-48 0 -81.5 29t-33.5 65z" />
<glyph unicode="&#xe5;" horiz-adv-x="1216" d="M-76 0l559 1413q-39 24 -62.5 64.5t-23.5 87.5q0 71 50 122.5t120 51.5q71 0 122.5 -51.5t51.5 -122.5q0 -45 -20.5 -83.5t-56.5 -62.5l563 -1419h-221l-172 422h-515q-125 -298 -172 -422h-223zM397 616h357l-176 506zM504 1565q0 -25 19 -44.5t44 -19.5q30 0 49 19 t19 45q0 27 -19 47t-49 20q-25 0 -44 -20.5t-19 -46.5z" />
<glyph unicode="&#xe6;" horiz-adv-x="1720" d="M-70 0l803 1434h895v-207h-663v-510h649v-207h-649v-303h667v-207h-874v510h-303q-215 -374 -291 -510h-234zM569 717h189l20 454z" />
<glyph unicode="&#xe7;" horiz-adv-x="1431" d="M6 713q0 148 54.5 280t150.5 234q96 99 224.5 156t271.5 57q246 0 425.5 -143t241.5 -386h-205q-56 158 -178 241t-284 83q-101 0 -192.5 -41t-160.5 -113q-147 -154 -147 -368q0 -211 147 -365q69 -72 160.5 -112.5t192.5 -40.5q165 0 292.5 90.5t182.5 251.5h202 q-59 -233 -228.5 -381.5t-399.5 -163.5l-21 -55q76 -4 126.5 -45t62.5 -96t-18.5 -117t-102.5 -105q-46 -28 -108.5 -33.5t-119.5 11t-102 59t-57 102.5l119 37q64 -82 140 -75q53 6 76 46q24 43 -14 77q-51 48 -190 42l67 156q-237 30 -403 207q-95 102 -150 233.5 t-55 276.5z" />
<glyph unicode="&#xe8;" horiz-adv-x="958" d="M25 0h874v207h-666v405h650v209h-650v404h664v207h-872v-1432zM197 1718h278l148 -219h-195z" />
<glyph unicode="&#xe9;" horiz-adv-x="958" d="M25 0v1432h872v-207h-664v-404h650v-209h-650v-405h666v-207h-874zM350 1495l148 219h278l-231 -219h-195z" />
<glyph unicode="&#xea;" horiz-adv-x="958" d="M25 0v1432h872v-207h-664v-404h650v-209h-650v-405h666v-207h-874zM164 1501l231 205h176l226 -205h-222l-98 80l-88 -80h-225z" />
<glyph unicode="&#xeb;" horiz-adv-x="958" d="M25 0h874v207h-666v405h650v209h-650v404h664v207h-872v-1432zM188 1591q0 47 33 78t80 31q53 0 86 -30.5t33 -78.5q0 -39 -33.5 -69.5t-85.5 -30.5q-45 0 -79 31t-34 69zM563 1591q0 47 32.5 78t80.5 31q53 0 85 -30.5t32 -78.5q0 -38 -35.5 -69t-81.5 -31t-79.5 31 t-33.5 69z" />
<glyph unicode="&#xec;" horiz-adv-x="776" d="M-23 0h740v207h-266v1020h266v205h-740v-205h267v-1020h-267v-207zM31 1710h278l148 -219h-195z" />
<glyph unicode="&#xed;" horiz-adv-x="765" d="M-33 0v207h266v1020h-266v205h740v-205h-267v-1020h267v-207h-740zM229 1497l148 219h278l-231 -219h-195z" />
<glyph unicode="&#xee;" horiz-adv-x="765" d="M-33 0v207h266v1020h-266v205h740v-205h-267v-1020h267v-207h-740zM23 1493l231 205h176l225 -205h-221l-98 80l-88 -80h-225z" />
<glyph unicode="&#xef;" horiz-adv-x="765" d="M-33 0h740v207h-267v1020h267v205h-740v-205h266v-1020h-266v-207zM45 1589q0 47 32.5 77t80.5 30q52 0 84 -29.5t32 -77.5q0 -39 -33 -69.5t-83 -30.5q-46 0 -79.5 31t-33.5 69zM416 1589q0 47 32 77t82 30q52 0 83.5 -29.5t31.5 -77.5q0 -37 -35 -68.5t-80 -31.5 q-48 0 -81 31t-33 69z" />
<glyph unicode="&#xf1;" d="M33 0v1436l160 -2l698 -1010v1010h205v-1434h-164l-692 1001v-1001h-207zM322 1538q33 82 64 122.5t73 47.5q33 4 70.5 -9.5t63.5 -29t50.5 -24.5t42 5.5t27.5 59.5l135 -59q-52 -138 -125 -166q-27 -9 -62 2t-64 27.5t-58 27.5t-53.5 -0.5t-41.5 -54.5z" />
<glyph unicode="&#xf2;" horiz-adv-x="1552" d="M-4 717q0 -148 56.5 -281.5t156.5 -236.5t233.5 -160t282.5 -57q150 0 283 57t235 160q100 103 156.5 236.5t56.5 281.5t-56.5 281.5t-156.5 236.5q-102 102 -235.5 159.5t-282.5 57.5q-148 0 -282 -57.5t-234 -159.5q-100 -103 -156.5 -236.5t-56.5 -281.5zM205 717 q0 107 40.5 202.5t112.5 167.5q72 73 167.5 114.5t199.5 41.5t201 -41.5t170 -114.5q151 -154 151 -370q0 -108 -40 -203t-111 -168q-73 -73 -170 -114.5t-201 -41.5t-199.5 41.5t-167.5 114.5q-72 72 -112.5 168t-40.5 203zM426 1724h279l147 -219h-195z" />
<glyph unicode="&#xf3;" horiz-adv-x="1552" d="M-4 717q0 148 56.5 281.5t156.5 236.5q100 102 234 159.5t282 57.5q149 0 282.5 -57.5t235.5 -159.5q100 -103 156.5 -236.5t56.5 -281.5t-56.5 -281.5t-156.5 -236.5q-102 -103 -235 -160t-283 -57q-149 0 -282.5 57t-233.5 160t-156.5 236.5t-56.5 281.5zM205 717 q0 -107 40.5 -203t112.5 -168q72 -73 167.5 -114.5t199.5 -41.5t201 41.5t170 114.5q71 73 111 168t40 203q0 216 -151 370q-73 73 -170 114.5t-201 41.5t-199.5 -41.5t-167.5 -114.5q-72 -72 -112.5 -167.5t-40.5 -202.5zM606 1503l148 219h278l-231 -219h-195z" />
<glyph unicode="&#xf4;" horiz-adv-x="1552" d="M-4 717q0 148 56.5 281.5t156.5 236.5q100 102 234 159.5t282 57.5q149 0 282.5 -57.5t235.5 -159.5q100 -103 156.5 -236.5t56.5 -281.5t-56.5 -281.5t-156.5 -236.5q-102 -103 -235 -160t-283 -57q-149 0 -282.5 57t-233.5 160t-156.5 236.5t-56.5 281.5zM205 717 q0 -107 40.5 -203t112.5 -168q72 -73 167.5 -114.5t199.5 -41.5t201 41.5t170 114.5q71 73 111 168t40 203q0 216 -151 370q-73 73 -170 114.5t-201 41.5t-199.5 -41.5t-167.5 -114.5q-72 -72 -112.5 -167.5t-40.5 -202.5zM418 1499l231 205h176l226 -205h-222l-98 80 l-88 -80h-225z" />
<glyph unicode="&#xf5;" horiz-adv-x="1552" d="M-4 717q0 148 56.5 281.5t156.5 236.5q100 102 234 159.5t282 57.5q149 0 282.5 -57.5t235.5 -159.5q100 -103 156.5 -236.5t56.5 -281.5t-56.5 -281.5t-156.5 -236.5q-102 -103 -235 -160t-283 -57q-149 0 -282.5 57t-233.5 160t-156.5 236.5t-56.5 281.5zM205 717 q0 -107 40.5 -203t112.5 -168q72 -73 167.5 -114.5t199.5 -41.5t201 41.5t170 114.5q71 73 111 168t40 203q0 216 -151 370q-73 73 -170 114.5t-201 41.5t-199.5 -41.5t-167.5 -114.5q-72 -72 -112.5 -167.5t-40.5 -202.5zM459 1550q32 73 65.5 110.5t75.5 43.5 q33 4 70 -7.5t63.5 -25.5t51 -22t42.5 5t29 52l135 -49q-29 -65 -59 -103t-70 -51q-31 -11 -61.5 0t-63 25t-60 25.5t-52.5 0.5t-41 -49z" />
<glyph unicode="&#xf6;" horiz-adv-x="1552" d="M-4 717q0 -148 56.5 -281.5t156.5 -236.5t233.5 -160t282.5 -57q150 0 283 57t235 160q100 103 156.5 236.5t56.5 281.5t-56.5 281.5t-156.5 236.5q-102 102 -235.5 159.5t-282.5 57.5q-148 0 -282 -57.5t-234 -159.5q-100 -103 -156.5 -236.5t-56.5 -281.5zM205 717 q0 107 40.5 202.5t112.5 167.5q72 73 167.5 114.5t199.5 41.5t201 -41.5t170 -114.5q151 -154 151 -370q0 -108 -40 -203t-111 -168q-73 -73 -170 -114.5t-201 -41.5t-199.5 41.5t-167.5 114.5q-72 72 -112.5 168t-40.5 203zM432 1591q0 45 32.5 74t80.5 29q53 0 86 -28.5 t33 -74.5q0 -38 -34 -68t-85 -30q-46 0 -79.5 30t-33.5 68zM807 1591q0 45 33.5 74t81.5 29q54 0 86 -28.5t32 -74.5q0 -37 -35.5 -67.5t-82.5 -30.5q-46 0 -80.5 30t-34.5 68z" />
<glyph unicode="&#xf8;" horiz-adv-x="1556" d="M8 717q0 148 56.5 281.5t156.5 236.5q100 102 234 159.5t282 57.5q174 0 310 -68l67 105l229 2l-135 -217q260 -226 260 -557q0 -148 -56.5 -281.5t-156.5 -236.5t-234 -160t-284 -57q-73 0 -159.5 19t-151.5 48l-86 -137h-227l155 250l-47 39v-2q-100 103 -156.5 236.5 t-56.5 281.5zM217 717q0 -106 41.5 -202t112.5 -169v-2q0 -1 5 -4t5 -4l553 872q-90 35 -197 35q-104 0 -199 -41.5t-167 -114.5q-71 -73 -112.5 -168.5t-41.5 -201.5zM537 231q84 -41 200 -41q105 0 201.5 41.5t169.5 114.5q71 73 111.5 168.5t40.5 202.5q0 110 -44 209.5 t-120 175.5q-290 -453 -559 -871z" />
<glyph unicode="&#xf9;" horiz-adv-x="1206" d="M37 430q0 -106 47 -192.5t124 -140t169.5 -82.5t189.5 -29q94 0 186.5 29t170 82.5t125 139.5t47.5 191v1004h-209v-1002q0 -75 -49.5 -130.5t-120.5 -81t-150 -25.5q-80 0 -151 25t-120.5 80t-49.5 130v1004h-209v-1002zM303 1708h279l147 -219h-194z" />
<glyph unicode="&#xfa;" horiz-adv-x="1206" d="M37 430v1002h209v-1004q0 -75 49.5 -130t120.5 -80t151 -25q79 0 150 25.5t120.5 81t49.5 130.5v1002h209v-1004q0 -105 -47.5 -191t-125 -139.5t-170 -82.5t-186.5 -29q-97 0 -189.5 29t-169.5 82.5t-124 140t-47 192.5zM428 1493l147 219h279l-231 -219h-195z" />
<glyph unicode="&#xfb;" horiz-adv-x="1206" d="M37 430v1002h209v-1004q0 -75 49.5 -130t120.5 -80t151 -25q79 0 150 25.5t120.5 81t49.5 130.5v1002h209v-1004q0 -105 -47.5 -191t-125 -139.5t-170 -82.5t-186.5 -29q-97 0 -189.5 29t-169.5 82.5t-124 140t-47 192.5zM244 1493l231 205h176l226 -205h-222l-98 80 l-88 -80h-225z" />
<glyph unicode="&#xfc;" horiz-adv-x="1206" d="M37 430q0 -106 47 -192.5t124 -140t169.5 -82.5t189.5 -29q94 0 186.5 29t170 82.5t125 139.5t47.5 191v1004h-209v-1002q0 -75 -49.5 -130.5t-120.5 -81t-150 -25.5q-80 0 -151 25t-120.5 80t-49.5 130v1004h-209v-1002zM268 1591q0 48 33 78.5t80 30.5q54 0 87.5 -30 t33.5 -79q0 -40 -34.5 -71t-86.5 -31q-45 0 -79 31.5t-34 70.5zM647 1591q0 49 32.5 79t82.5 30q54 0 86.5 -30t32.5 -79q0 -39 -36 -70.5t-83 -31.5q-48 0 -81.5 31t-33.5 71z" />
<glyph unicode="&#xfd;" horiz-adv-x="1161" d="M-102 1432h243l391 -629l392 629h245l-532 -848v-584h-209v584zM408 1495l147 219h279l-232 -219h-194z" />
<glyph unicode="&#xff;" horiz-adv-x="1161" d="M-102 1432l530 -848v-584h209v584l532 848h-245l-392 -629l-391 629h-243zM211 1593q0 53 33.5 87t81.5 34q54 0 87 -33.5t33 -87.5q0 -45 -34 -79.5t-86 -34.5q-46 0 -80.5 35t-34.5 79zM592 1593q0 53 33.5 87t83.5 34q54 0 86 -33.5t32 -87.5q0 -43 -35.5 -78.5 t-82.5 -35.5q-48 0 -82.5 35t-34.5 79z" />
<glyph unicode="&#x152;" horiz-adv-x="1697" d="M-6 717q0 208 96.5 376t264 261.5t372.5 93.5q61 0 113 -8h774v-207h-662v-412h647v-209h-647v-409h666v-207h-760q-68 -10 -131 -10q-205 0 -372.5 93.5t-264 261.5t-96.5 376zM203 717q0 -148 68.5 -271t189 -194.5t266.5 -71.5h10h6v1077h-16q-146 -2 -266.5 -74.5 t-189 -195.5t-68.5 -270z" />
<glyph unicode="&#x153;" horiz-adv-x="1697" d="M-6 717q0 208 96.5 376t264 261.5t372.5 93.5q61 0 113 -8h774v-207h-662v-412h647v-209h-647v-409h666v-207h-760q-68 -10 -131 -10q-205 0 -372.5 93.5t-264 261.5t-96.5 376zM203 717q0 -148 68.5 -271t189 -194.5t266.5 -71.5h10h6v1077h-16q-146 -2 -266.5 -74.5 t-189 -195.5t-68.5 -270z" />
<glyph unicode="&#x178;" horiz-adv-x="1161" d="M-102 1432l530 -848v-584h209v584l532 848h-245l-392 -629l-391 629h-243zM211 1593q0 53 33.5 87t81.5 34q54 0 87 -33.5t33 -87.5q0 -45 -34 -79.5t-86 -34.5q-46 0 -80.5 35t-34.5 79zM592 1593q0 53 33.5 87t83.5 34q54 0 86 -33.5t32 -87.5q0 -43 -35.5 -78.5 t-82.5 -35.5q-48 0 -82.5 35t-34.5 79z" />
<glyph unicode="&#x2c6;" horiz-adv-x="638" d="M-12 1294l231 205h176l226 -205h-222l-98 80l-88 -80h-225z" />
<glyph unicode="&#x2dc;" horiz-adv-x="712" d="M57 1303q33 81 64.5 122t73.5 48q33 4 70 -9.5t63 -29t51 -24.5t42.5 5.5t27.5 59.5l133 -60q-55 -145 -123 -170q-27 -10 -61.5 1t-64 28.5t-59 29.5t-54 1t-40.5 -54z" />
<glyph unicode="&#x2000;" horiz-adv-x="869" />
<glyph unicode="&#x2001;" horiz-adv-x="1739" />
<glyph unicode="&#x2002;" horiz-adv-x="869" />
<glyph unicode="&#x2003;" horiz-adv-x="1739" />
<glyph unicode="&#x2004;" horiz-adv-x="579" />
<glyph unicode="&#x2005;" horiz-adv-x="434" />
<glyph unicode="&#x2006;" horiz-adv-x="289" />
<glyph unicode="&#x2007;" horiz-adv-x="289" />
<glyph unicode="&#x2008;" horiz-adv-x="217" />
<glyph unicode="&#x2009;" horiz-adv-x="347" />
<glyph unicode="&#x200a;" horiz-adv-x="96" />
<glyph unicode="&#x2026;" horiz-adv-x="960" d="M29 113q0 53 33 85.5t81 32.5q54 0 87.5 -32t33.5 -86q0 -45 -34.5 -81t-86.5 -36q-46 0 -80 36.5t-34 80.5zM338 113q0 53 33.5 85.5t83.5 32.5q54 0 86 -32t32 -86q0 -45 -33 -81t-85 -36q-48 0 -82.5 36.5t-34.5 80.5zM655 113q0 53 33.5 85.5t83.5 32.5 q54 0 86.5 -32t32.5 -86q0 -45 -33.5 -81t-85.5 -36q-48 0 -82.5 36.5t-34.5 80.5z" />
<glyph unicode="&#x202f;" horiz-adv-x="347" />
<glyph unicode="&#x205f;" horiz-adv-x="434" />
<glyph unicode="&#x20ac;" horiz-adv-x="1511" d="M-25 530v150h76v33v18h-76v141h93q46 204 188 355q96 99 224.5 156t271.5 57q246 0 425.5 -143t241.5 -386h-205q-56 158 -178 241t-284 83q-101 0 -192.5 -41t-160.5 -113q-90 -96 -125 -209h355v-141h-377v-18v-33h377v-150h-344q36 -101 114 -182q69 -72 160.5 -112.5 t192.5 -40.5q165 0 292.5 90.5t182.5 251.5h203q-62 -247 -246 -397t-432 -150q-144 0 -272 56.5t-224 156.5q-133 140 -182 327h-99z" />
<glyph unicode="&#xe000;" horiz-adv-x="1433" d="M0 0v1434h1434v-1434h-1434z" />
</font>
</defs>
</svg>
